(Messaggi recenti) • 2 messaggi • • •

Seguici anche su HD-Italia.co

Risingshare.fun e' il nuovo dominio

Per visualizzare i Link è necessario registrarsi

Max 2: Un Eroe Alla Casa Bianca (2017) avi BDRip AC3 - ITA

Film BRRip - BDRip (480p, 576p)

Max 2: Un Eroe Alla Casa Bianca (2017) avi BDRip AC3 - ITA

Messaggioda FAST » 11/08/2017, 19:01

Immagine

Scheda:

Max 2: White House Hero
Gran Bretagna, 2017
Genere: Commedia
Durata 85'
Regia di Brian Levant
Con Zane Austin, Francesca Capaldi, Lochlyn Munro, Andrew Kavadas, Reese Alexander, Carrie Genzel, Bradley Stryker, Kathryn Kirkpatrick...

Trama:

Il pastore tedesco Max viene assegnato alla Casa Bianca dal momento che Charlie, il cane in servizio, è in congedo per maternità. Qui, Max ha modo di conoscere TJ, il dodicenne figlio del Presidente. A causa dello stile di vita richiesto dal protocollo, Max ha qualche difficoltà ad adattarsi e vorrebbe solo condurre un'esistenza normale. Durante una visita ufficiale del presidente russo e di sua figlia Alexandra, a TJ viene chiesto di accompagnare l'adolescente. In tal modo, TJ e Alexandra stringono amicizia e, quando finiranno nei guai, Max sarà pronto a salvarli.

Max.2.Un.Eroe.Alla.Casa.Bianca.2017.iTALiAN.BDRiP.XviD-HDi.avi

Info:

Spoiler: Visualizza
General
Complete name : Max.2.Un.Eroe.Alla.Casa.Bianca.2017.iTALiAN.BDRiP.XviD-HDi.avi
Format : AVI
Format/Info : Audio Video Interleave
File size : 1.53 GiB
Duration : 1h 25mn
Overall bit rate : 2 557 Kbps
Writing application : VirtualDubMod 1.5.10.2 (build 2540/release)
Writing library : VirtualDubMod build 2540/release

Video
ID : 0
Format : MPEG-4 Visual
Format profile : Advanced Simple@L5
Format settings, BVOP : 1
Format settings, QPel : No
Format settings, GMC : No warppoints
Format settings, Matrix : Default (MPEG)
Codec ID : XVID
Codec ID/Hint : XviD
Duration : 1h 25mn
Bit rate : 2 100 Kbps
Width : 720 pixels
Height : 400 pixels
Display aspect ratio : 16:9
Frame rate : 23.976 fps
Color space : YUV
Chroma subsampling : 4:2:0
Bit depth : 8 bits
Scan type : Progressive
Compression mode : Lossy
Bits/(Pixel*Frame) : 0.304
Stream size : 1.25 GiB (82%)
Writing library : XviD 67

Audio
ID : 1
Format : AC-3
Format/Info : Audio Coding 3
Mode extension : CM (complete main)
Codec ID : 2000
Duration : 1h 25mn
Bit rate mode : Constant
Bit rate : 448 Kbps
Channel(s) : 6 channels
Channel positions : Front: L C R, Side: L R, LFE
Sampling rate : 48.0 KHz
Bit depth : 16 bits
Compression mode : Lossy
Stream size : 274 MiB (18%)
Alignment : Split accross interleaves
Interleave, duration : 42 ms (1.00 video frame)
Interleave, preload duration : 500 ms


Screenshots:

Spoiler: Visualizza
Immagine
Immagine
Immagine


Download:

usate ultima versione di winrar non esistono password da parte mia

Avatar utente
FAST
 
Messaggi: 3080
Iscritto il: 29/03/2015, 12:58

Re: Max 2: Un Eroe Alla Casa Bianca (2017) avi BDRip AC3 - ITA

Messaggioda peppeokkk » 12/08/2017, 12:20

Max.2.White.House.Hero.2017.AC3.BDRip.iTA-Peppe.avi (UPLD)
audio 10
video 10

Screenshoot:

ImmagineImmagineImmagine

INFO FILE

Spoiler: Visualizza
[ Info sul file ]

Nome: Max.2.White.House.Hero.2017.AC3.BDRip.iTA-Peppe.avi
Data: Sat, 12 Aug 2017 13:18:25 +0200
Dimensione: 1,583,511,552 bytes (1510.154297 MiB)

[ Magic ]

Tipo file: RIFF (little-endian) data, AVI, 656 x 368, ~24 fps, video: XviD, audio: Dolby AC3 (6 channels, 48000 Hz)

[ Info generiche ]

Durata: 01:25:26 (5126.121116 s)
Contenitore: AVI OpenDML
L'AVI ha un indice?: Sì
Totale tracce: 2
Traccia n. 0: video
Traccia n. 1: audio
ISFT: VirtualDubMod 1.5.10.2 (build 2540/release)
Junk: VirtualDubMod build 2540/release

[ Dati rilevanti ]

Risoluzione: 656 x 368
Larghezza: multipla di 16
Altezza: multipla di 16
DRF medio: 3.147036
Deviazione standard: 1.589231
Media pesata dev. std.: 1.452063

[ Traccia video ]

FourCC: xvid/XVID
Risoluzione: 656 x 368
Frame aspect ratio: 41:23 = 1.782609 (~16:9)
Pixel aspect ratio: 1:1 = 1
Display aspect ratio: 41:23 = 1.782609 (~16:9)
Framerate: 23.975633 fps
Totale frames: 122,902
Dimensione stream: 1,290,440,875 bytes (1230.660319 MiB)
Bitrate: 2013.906158 kbps
Qf: 0.347951
Key frames: 1,617 (0; 300; 533; 636; 936; ... 122837)
Null frames: 0
Min key int: 1
Max key int: 300
Avg key int: 76.006184
Ritardo: 0 ms

[ Traccia audio ]

Audio tag: 0x2000 (AC3)
Canali: 6
Chunks: 122,892
Dimensione stream: 287,062,782 bytes (273.764402 MiB)
Tipo di bitstream (bs): AC3
Frames (bs): 160,191
Durata: 01:25:26 (5126.112 s)
Chunk-aligned (bs): No
Bitrate (bs): 448 kbps CBR
Freq. campionamento (bs): 48000 Hz
Modo (bs): 3 front, 2 rear, 1 LFE
Final skip (bs): 510 bytes
Preload: 480 ms
Max A/V diff: 500 ms
Ritardo: 0 ms

[ Bitstream video ]

Tipo di bitstream: MPEG-4 Part 2
User data: XviD0067
Packed bitstream: No
QPel: No
GMC: No
Interlacciamento: No
Aspect ratio: Square pixels
Quant type: H.263
Totale frames: 122,902
Drop/delay frames: 0
Frames corrotti: 0

I-VOPs: 1617 ( 1.316 %)
P-VOPs: 46683 ( 37.984 %) ########
B-VOPs: 74602 ( 60.700 %) ############
S-VOPs: 0 ( 0.000 %)
N-VOPs: 0 ( 0.000 %)

Max B-VOPs consecutivi: 2
1 consec: 11194 ( 26.094 %) #####
2 consec: 31704 ( 73.906 %) ###############

[ Analisi DRF ]

DRF nedio: 3.147036
deviazione standard: 1.589231
max DRF: 16

DRF=1: 13540 ( 11.017 %) ##
DRF=2: 31233 ( 25.413 %) #####
DRF=3: 35840 ( 29.161 %) ######
DRF=4: 27436 ( 22.323 %) ####
DRF=5: 6396 ( 5.204 %) #
DRF=6: 3211 ( 2.613 %) #
DRF=7: 2691 ( 2.190 %)
DRF=8: 1131 ( 0.920 %)
DRF=9: 648 ( 0.527 %)
DRF>9: 776 ( 0.631 %)

I-VOPs DRF medio: 2.207792
I-VOPs deviazione std.: 1.471263
I-VOPs max DRF: 12

P-VOPs DRF medio: 2.35559
P-VOPs deviazione std.: 1.552426
P-VOPs max DRF: 11

B-VOPs DRF medio: 3.66265
B-VOPs deviazione std.: 1.388844
B-VOPs max DRF: 16

[ Conformità al profilo ]

Profilo selezionato: MTK PAL 6000
Risoluzione: Ok
Framerate: 23.975633 <> 25
Min riempimento buffer: 63%

Rapporto creato da AVInaptic (18-12-2011) in data 12-08-2017 13:22:33


Codice: Seleziona tutto
Devi eseguire il Login o Registrati, per vedere il contenuto
RANDOM_AVATAR
peppeokkk
 
Messaggi: 1350
Iscritto il: 30/08/2016, 16:43


Torna a BRRip - BDRip

Chi c’è in linea

Visitano il forum: fortunello, GERPATATA, leonce, pindan, scontati e 80 ospiti

cron