(Messaggi recenti) • 1 messaggio • • •

Seguici anche su HD-Italia.co

Risingshare.fun e' il nuovo dominio

Per visualizzare i Link è necessario registrarsi

Scream 2 (1997).avi DVDRip AC3 - ITA

Film DVDRip

Scream 2 (1997).avi DVDRip AC3 - ITA

Messaggioda FAST » 11/10/2017, 14:33

Immagine

Scheda:

Titolo originale Scream 2
Paese di produzione USA
Anno 1997
Durata 116 min
Genere orrore, thriller
Regia Wes Craven
Soggetto Kevin Williamson
Sceneggiatura Kevin Williamson
Produttore Cathy Konrad e Marianne Maddalena
Produttore esecutivo Bob Weinstein, Harvey Weinstein, Kevin Williamson
Casa di produzione Konrad Pictures, Craven/Maddalena Films
Distribuzione (Italia) Cecchi Gori Group
Fotografia Peter Deming
Montaggio Patrick Lussier
Effetti speciali Mark R. Byers
Musiche Marco Beltrami
Scenografia Bob Ziembicki
Costumi Kathleen Detoro
Trucco Karen Bradley, Lynn Marie Curreri, Melanie Levitt, Kris Ravetto, Christina Raye

Trama:

In un cinema della città di Windsor si proietta l'anteprima del film Squartati, ispirato ad un libro, scritto dalla giornalista Gale Weathers, basato sui tragici fatti realmente accaduti a Woodsboro l'anno prima. Due studenti, Maureen Evans e Phil Stevens vanno a guardare il film ricevendo come gadget la maschera, il costume e un finto coltello di Ghostface e trovando la sala di proiezione piena di persone mascherate. Durante la proiezione vengono entrambi uccisi da un killer mascherato.

Scream.2.mpg

Info:

Spoiler: Visualizza
General
Complete name : Scream.2.mpg
Format : MPEG-PS
File size : 1.57 GiB
Duration : 1h 55mn
Overall bit rate mode : Variable
Overall bit rate : 1 947 Kbps
Writing library : Created by Nero

Video
ID : 224 (0xE0)
Format : MPEG Video
Format version : Version 2
Format profile : Main@Main
Format settings, BVOP : Yes
Format settings, Matrix : Custom
Format settings, GOP : M=3, N=15
Duration : 1h 55mn
Bit rate mode : Variable
Bit rate : 1 717 Kbps
Maximum bit rate : 9 641 Kbps
Width : 704 pixels
Height : 576 pixels
Display aspect ratio : 16:9
Frame rate : 25.000 fps
Standard : PAL
Color space : YUV
Chroma subsampling : 4:2:0
Bit depth : 8 bits
Scan type : Progressive
Scan order : Bottom Field First
Compression mode : Lossy
Bits/(Pixel*Frame) : 0.169
Stream size : 1.39 GiB (88%)
Writing library : Created by Nero
Color primaries : BT.470-2 System B, BT.470-2 System G
Transfer characteristics : BT.470-2 System B, BT.470-2 System G
Matrix coefficients : BT.470-2 System B, BT.470-2 System G

Audio
ID : 189 (0xBD)-128 (0x80)
Format : AC-3
Format/Info : Audio Coding 3
Mode extension : CM (complete main)
Muxing mode : DVD-Video
Duration : 1h 55mn
Bit rate mode : Constant
Bit rate : 192 Kbps
Channel(s) : 2 channels
Channel positions : Front: L R
Sampling rate : 48.0 KHz
Bit depth : 16 bits
Compression mode : Lossy
Stream size : 159 MiB (10%)


Screenshots:

Spoiler: Visualizza
Immagine
Immagine
Immagine


Download:

usate ultima versione di winrar non esistono password da parte mia

Avatar utente
FAST
 
Messaggi: 3462
Iscritto il: 29/03/2015, 12:58

Torna a DVDRip

Chi c’è in linea

Visitano il forum: Erfico e 70 ospiti

cron